Top Gear The Perfect Road Trip 2013 WEBRip 480p x264 AAC - VYTO [P2PDL]

Size 317.791 MB   0 seeders     Added 2016-10-24 20:50:20

Top Gear The Perfect Road Trip 2013 WEBRip 480p x264 AAC - VYTO
Quote:
Genre: Adventure
Plot: (Not Available)
Director: Phil Churchward
Stars: Oreste Cipollaro, Jeremy Clarkson, Richard Hammond
Rated: N/A

IMDbTrailer
Quote:
General
Format : MPEG-4
File size : 423 MiB
Duration : 2h 8mn
Overall bit rate mode : Variable
Overall bit rate : 461 Kbps
Video
Format : AVC
Bit rate : 419 Kbps
Width : 720 pixels
Height : 304 pixels
Display aspect ratio : 2.35:1
Frame rate mode : Constant
Frame rate : 23.976 fps
Bit depth : 10 bits
Stream size : 384 MiB (91%)
Writing library : x264 core 138 r2358 9e941d1
Audio
Format : AAC
Bit rate : 40.0 Kbps
Channel count : 2 channels
Channel positions : Front: L R
Sampling rate : 48.0 KHz / 24.0 KHz
Stream size : 36.6 MiB (9%)
Language : English
Subtitle : No
Source : 720p.WEB-DL.H264-HDB

Screenshots:
Quote:
Encoded using revolutionary 10bit encoding, which enables us to provide you more crispier
and sharper images at small sizes, just make sure you follow our instructions without a fault.
Recommend to you to use latest version of VLC player. Install K-Lite Codec Pack or shark007 codecs
in case of any kind of problem in playback (For non-VLC Media Player users). Alternatively, install
Core AVC codecs, the fastest decoder that there is coupled with Community Center Codec Pack and play
on Windows Media Player Classic. Check sample to be sure.
Enjoy!
Encoder Notes:Looking For Early Access To Anything You Can Provide DVDScr, R5, DVDR, BluRay, Direct
Audio, Music Releases and Seedboxes. We require dedicated servers, so as to do more
and fast releases of movies.
If You Got anything to offer please contact us at "[email protected]".
Top Gear The Perfect Road Trip 2013 WEBRip 480p x264 AAC - VYTO [P2PDL]/Sample.mp4 5.639 MB
Top Gear The Perfect Road Trip 2013 WEBRip 480p x264 AAC - VYTO [P2PDL]/Top Gear The Perfect Road Trip 2013 WEBRip 480p x264 AAC - VYTO.mp4 312.148 MB
Top Gear The Perfect Road Trip 2013 WEBRip 480p x264 AAC - VYTO [P2PDL]/Top Gear The Perfect Road Trip 2013 WEBRip 480p x264 AAC - VYTO.nfo 4.747 KB
Gathering some info...

Register and log in Isohunt and see no captcha anymore!

4000 symbols left
Hash a5f5cba785e21772c8556ebd42140746a1b2d620

Related torrents for "Top Gear The Perfect Road Trip 2013 WEBRip 480p x264 AAC - VYTO [P2PDL]"