imdb
rating

8.0
Prison Break: The Final Break

Prison Break: The Final Break (2009)

Action, Drama, Thriller

Full description
quality   bd hd dvdrip x264 fullhd

Prison Break The Final Break 2009 1080p BluRay x264 DTS-FGT

Size 7.008 GB   12 seeders     Added 2016-07-15 04:14:03

Video
ID : 1
Format : AVC
Format/Info : Advanced Video Codec
Format profile : [email protected]
Format settings, CABAC : Yes
Format settings, ReFrames : 4 frames
Codec ID : V_MPEG4/ISO/AVC
Duration : 1h 29mn
Bit rate : 8 975 Kbps
Width : 1 920 pixels
Height : 1 080 pixels
Display aspect ratio : 16:9
Frame rate mode : Constant
Frame rate : 23.976 fps
Color space : YUV
Chroma subsampling : 4:2:0
Bit depth : 8 bits
Scan type : Progressive
Bits/(Pixel*Frame) : 0.181
Stream size : 5.46 GiB (84%)
Writing library : x264 core 67 r1153M 7b6ce6a
Encoding settings : cabac=1 / ref=4 / deblock=1:-3:-3 /
analyse=0x3:0x113 / me=umh / subme=9 / psy_rd=1.1:0.3 / mixed_ref=1
/ me_range=26 / chroma_me=1 / trellis=1 / 8x8dct=1 / cqm=2 /
deadzone=21,11 / chroma_qp_offset=-4 / threads=12 / nr=0 /
decimate=1 / mbaff=0 / bframes=3 / b_pyramid=1 / b_adapt=1 /
b_bias=0 / direct=3 / wpredb=1 / keyint=250 / keyint_min=25 /
scenecut=40 / rc=2pass / bitrate=8975 / ratetol=1.0 / qcomp=0.60 /
qpmin=10 / qpmax=51 / qpstep=4 / cplxblur=20.0 / qblur=0.5 /
ip_ratio=1.40 / pb_ratio=1.30 / aq=1:0.90
Language : English
Default : Yes
Forced : No
Audio
ID : 2
Format : DTS
Format/Info : Digital Theater Systems
Mode : 16
Format settings, Endianness : Big
Codec ID : A_DTS
Duration : 1h 29mn
Bit rate mode : Constant
Bit rate : 1 509 Kbps
Channel(s) : 6 channels
Channel positions : Front: L C R, Side: L R, LFE
Sampling rate : 48.0 KHz
Frame rate : 93.750 fps (512 spf)
Bit depth : 24 bits
Compression mode : Lossy
Stream size : 962 MiB (14%)
Language : English
Default : Yes
Forced : No
Text
ID : 3
Format : UTF-8
Codec ID : S_TEXT/UTF8
Codec ID/Info : UTF-8 Plain Text
Language : English
Default : No
Forced : No
Prison.Break.The.Final.Break.2009.1080p.BluRay.x264.DTS-FGT/Prison.Break.The.Final.Break.2009.1080p.BluRay.x264.DTS-FGT.mkv 7.008 GB
Prison.Break.The.Final.Break.2009.1080p.BluRay.x264.DTS-FGT/Prison.Break.The.Final.Break.2009.1080p.BluRay.x264.DTS-FGT.nfo 4.152 KB
Prison.Break.The.Final.Break.2009.1080p.BluRay.x264.DTS-FGT/RARBG.com.txt 34 B
Gathering some info...

Register and log in Isohunt and see no captcha anymore!

4000 symbols left
Hash fb74f55bb45fb88bb30fb66a50eb3ed58641147d

Related torrents for "Prison Break The Final Break 2009 1080p BluRay x264 DTS-FGT"

Torrent search:

2009 x264 fullhd bd